The Femme Fatale Tour (BluRay - China)




General
HDChina.mkv
Format : Matroska
Format version : Version 2
File size : 12.0 GiB
Duration : 1 h 25 min
Overall bit rate : 20.0 Mb/s
Encoded date : UTC 2011-11-25 17:50:46

Video
ID : 1
Format : AVC
Format/Info : Advanced Video Codec
Format profile : High@L4.1
Format settings, CABAC : Yes
Format settings, ReFrames : 4 frames
Codec ID : V_MPEG4/ISO/AVC
Duration : 1 h 25 min
Bit rate : 18.5 Mb/s
Width : 1 920 pixels
Height : 1 080 pixels
Display aspect ratio : 16:9
Frame rate mode : Constant
Frame rate : 29.970 (30000/1001) FPS
Color space : YUV
Chroma subsampling : 4:2:0
Bit depth : 8 bits
Scan type : Progressive
Bits/(Pixel*Frame) : 0.298
Stream size : 10.9 GiB (90%)
Writing library : x264 core 116 r2074 2641b9e
Default : No
Forced : No

Audio
ID : 2
Format : DTS
Format/Info : Digital Theater Systems
Mode : 16
Format settings, Endianness : Big
Codec ID : A_DTS
Duration : 1 h 25 min
Bit rate mode : Constant
Bit rate : 1 510 kb/s
Channel(s) : 6 channels
Channel positions : Front: L C R, Side: L R, LFE
Sampling rate : 48.0 kHz
Frame rate : 93.750 FPS (512 spf)
Bit depth : 24 bits
Compression mode : Lossy
Stream size : 928 MiB (8%)
Language : English
Default : Yes
Forced : No


ESPECIFICACIONES
Servidor: Cloud Mail
Password/contraseña: Bluray
Créditos: Britney Spears Russia
Nombre

...Baby One More Time,8,1998,1,1999,10,2000,9,2001,5,2002,11,2003,9,2004,5,2005,4,2007,7,2008,11,2009,5,2011,13,2012,3,2013,9,2014,1,2015,6,2016,19,2017,19,2018,8,3D,1,Acapella,2,Album Studio,40,Alternativas,1,Android,2,APE,2,App,3,Artes,4,Audios,5,B In The Mix,4,Baby One More Time Era,12,Blackout,4,Blackout Era,7,BluRay,3,Bonus DVD,3,Britney,5,Britney Era,16,Britney Jean,6,Britney Jean Era,6,Britney Live In Concert,12,Britney: Piece Of Me,4,Circus,10,Circus Era,12,Circus Tour,3,Clean Version,1,Colaboraciones,1,Crossroads,3,Deluxe Version,12,Demos,1,Digital Booklet,1,Documental,1,Dream Within a Dream,3,DVD,17,EP,24,EP Oficiales,18,Explicito,3,FanMade,30,Femme Fatale,10,Femme Fatale Era,12,Femme Fatale Tour,2,FLAC,18,Glory,8,Glory Era,18,In The Zone,10,In The Zone Era,15,Instrumental,11,Internacional Version,15,iOS,2,iTunes,26,iTunes Album,20,iTunes EP,4,iTunes LP,2,iTunes Single,3,Japon,5,Live Version,7,My Prerogative,2,Oops! ...I Did It Again,4,Oops! ...I Did It Again Era,9,Original Cultura Britney,20,PC,2,Películas,3,Pepsi,1,Presentaciones,1,Promos,2,Recopilatorio,10,Reedición,1,Remixes,17,Revistas,1,Show,2,Singles,2,Sondtrack,1,Studio Version,6,The M+M’s,1,The Onyx Hotel,4,Tour,21,Tour Book,1,TV,3,UHQ,1,Unreleased,3,Videografía,1,Videojuegos,4,Videos,9,Vinyl,7,WAV,1,
ltr
item
Cultura Britney Media: The Femme Fatale Tour (BluRay - China)
The Femme Fatale Tour (BluRay - China)
https://1.bp.blogspot.com/-3P7LKQrumfY/WoMXNiBnqrI/AAAAAAAAIZU/7aM72ZtH1BQN8EW3rxHP4kAI3LM-w02fwCLcBGAs/s1600/31140_front.jpg
https://1.bp.blogspot.com/-3P7LKQrumfY/WoMXNiBnqrI/AAAAAAAAIZU/7aM72ZtH1BQN8EW3rxHP4kAI3LM-w02fwCLcBGAs/s72-c/31140_front.jpg
Cultura Britney Media
https://media.culturabritney.com.ve/2018/02/the-femme-fatale-tour-bluray-china.html
https://media.culturabritney.com.ve/
https://media.culturabritney.com.ve/
https://media.culturabritney.com.ve/2018/02/the-femme-fatale-tour-bluray-china.html
true
511055698510171301
UTF-8
CARGAR TODO NO SE ENCONTRÓ NADA VER TODO VER MÁS RESPONDER Cancel reply ELIMINAR PÒR INICIO PAGINAS POSTS VER TODO RECOMENDADOS PARA TI TAGS ARCHIVOS BUSCADOR TODOS LOS POST NO SE ENCONTRÓ NADA VOLVER A INICIO Sunday Monday Tuesday Wednesday Thursday Friday Saturday Sun Mon Tue Wed Thu Fri Sat January February March April May June July August September October November December Jan Feb Mar Apr May Jun Jul Aug Sep Oct Nov Dec just now 1 minute ago $$1$$ minutes ago 1 hour ago $$1$$ hours ago Yesterday $$1$$ days ago $$1$$ weeks ago more than 5 weeks ago Seguidores Seguir EL CONTENIDO ES PREMIUM, COMPARTE PARA DESBLOQUEAR Please share to unlock Copy All Code Select All Code All codes were copied to your clipboard Can not copy the codes / texts, please press [CTRL]+[C] (or CMD+C with Mac) to copy